» » Count Basie And His Orchestra - This Time By Basie

Count Basie And His Orchestra - This Time By Basie album


Size MP3 album: 1120 mb. | Size FLAC album: 1321 mb.

The Count Basie Orchestra is a 16 to 18 piece big band, one of the most prominent jazz performing groups of the swing era, founded by Count Basie in 1935 and recording regularly from 1936. Despite a brief disbandment at the beginning of the 1950s, the band survived long past the Big Band era itself and the death of Basie in 1984. It continues as a 'ghost band'.

The Atomic Mr. Basie (originally called Basie, also known as E MC2 and reissued in 1994 as The Complete Atomic Basie) is a 1958 album by Count Basie and his orchestra. The album is one of Basie's most famous and is critically acclaimed.

Sonny Cohn, Albert Aarons, Thad Jones, . Ricard, Edward Preston - trumpets. Henry Coker, Benny Powell, Urbie Green, Grover Mitchell - trombones. Nothing could be further from the truth, however - this 16-song release reveals a wonderful body of work, and deserves to be better known. For starters, This Time by Basie swings, smooth and easy but taut, or hot and heavy.

Nothing could be further from the truth, however - this 16-song release reveals a wonderful body of work, and deserves to be better known. The last five songs here are drawn from Pop Goes the Basie, a 1965 album arranged and conducted by Billy Byers, and produced by Teddy Reig - the playing is as good as the companion work on numbers like "The Hucklebuck.

TITLE "One Mint Julep" PERFORMER "Count Basie" INDEX 00 05:49:06 INDEX 01 05:49:38 TRACK 04 AUDIO TITLE "The Swingin' Shepherd Blues" PERFORMER "Count Basie" INDEX 00 09:50:20 INDEX 01 09:50:64 TRACK 05 AUDIO TITLE "I Can't Stop Loving You" PERFORMER "Count Basie" INDEX 00 13:05:03 INDEX 01 13:05:29 TRACK 0. From Sonny Payne's understated cymbal intro to "This Could Be the Start of Something Big" to the bluesier notes of "One Mint Julep," Basie and company sound like they're enjoying themselves, whether elegantly stretching out on "I Left My Heart in San Francisco" or "Moon River," or soaring into the air on the hotter numbers - one of the more surprising covers.

Count Basie And His Orchestra скачать в mp3 на телефон или слушайте песню Count Basie Orchestra - Satin Doll, Count Basie And His Orchestra - Jive at Five, Count Basie & His Orchestra - How Long Blues, Count Basie & His Orchestra - Mine Too, Count Basie And His Orchestra - Lullaby of Birdland и другие популярные треки и рингтоны. Count Basie & His Orchestra –Hob-Nail Boogie. Count Basie And His Orchestra –The Blues I Like To Hear. Count Basie & His Orchestra –Swee' Pea.

Tracklist Hide Credits

A1 This Could Be The Start Of Something Big
Written-By – Allen*
A2 I Left My Heart In San Francisco
Written-By – Cross*, Cory*
A3 Nice 'N' Easy
Written-By – Bergman*, Spence*, Keith*
B1 The Swingin' Shepherd Blues
Written-By – Jacobson*, Koffman*, Roberts*
B2 One Mint Julep
Written-By – Toombs*

Companies, etc.

  • Published By – Rosemeadow Pub. Corp.
  • Published By – General Music Publishing Co., Inc.
  • Published By – Eddie Shaw Music Co.
  • Published By – Nom Music Inc.
  • Published By – Progressive Music Pub. Co., Inc.
  • Published By – Regent Music Corp.

Notes

Songs are selected from : Count Basie - This Time By Basie - Hits Of The 50's & 60's!

This record have been released by Seeburg Oct 1963 and RSI Feb.64
The Seeburg release with hard cover sleeve with img from full album, RSI release in factory sleeve. It's thought that the records looks the same.

Barcode and Other Identifiers

  • Rights Society (A1-A3): ASCAP
  • Rights Society (B1, B2): BMI

Count Basie And His Orchestra - This Time By Basie album
Swing, Big Band
Performer: Count Basie And His Orchestra
Title: This Time By Basie
Category: Jazz
Rating: 4.4/5
Votes: 794
Other Formats: TTA DXD VOX MOD MP1 MP2 APE